[ オンエアリストに戻る ]
TITLE "Heavy Metal Syndicate #713"
FILE "2004-10-10.mp3" WAVE
  TRACK 01 AUDIO
    TITLE "BEWARE THE BEAST"
    PERFORMER "FIREWIND : Forged by Fire"
    INDEX 01 00:00:00

  TRACK 02 AUDIO
    TITLE "PANIC"
    PERFORMER "ANTHRAX : The Greater of Two Evils"
    INDEX 01 11:53:29

  TRACK 03 AUDIO
    TITLE "KICK THE CHAIR"
    PERFORMER "MEGADETH : The System Has Failed"
    INDEX 01 16:42:39

  TRACK 04 AUDIO
    TITLE "SOLITARY MAN (Live 2004)"
    PERFORMER "RAGE : From the Cradle to the Stage - 20th Anniversary"
    INDEX 01 23:11:01

  TRACK 05 AUDIO
    TITLE "DON'T FEAR THE WINTER (Live 2004)"
    PERFORMER "RAGE : From the Cradle to the Stage - 20th Anniversary"
    INDEX 01 25:32:25

  TRACK 06 AUDIO
    TITLE "GATES OF HEAVEN"
    PERFORMER "STEEL ATTACK : Enslaved"
    INDEX 01 31:51:70

  TRACK 07 AUDIO
    TITLE "99"
    PERFORMER "HAUNTED : Revolver"
    INDEX 01 37:51:03

  TRACK 08 AUDIO
    TITLE "Classic rock: GODZILLA"
    PERFORMER "BLUE OYSTER CULT : Spectres"
    INDEX 01 52:19:44


SEO [PR] おまとめローン 冷え性対策 坂本龍馬 動画掲示板 レンタルサーバー SEO