[ オンエアリストに戻る ]
TITLE "Heavy Metal Syndicate #712"
FILE "2004-10-03.mp3" WAVE
  TRACK 01 AUDIO
    TITLE "DIE DEAD ENOUGH"
    PERFORMER "MEGADETH : The System Has Failed"
    INDEX 01 00:00:00

  TRACK 02 AUDIO
    TITLE "WAR INSIDE MY HEAD (Live 2004)"
    PERFORMER "DREAM THEATER : Live at Budokan"
    INDEX 01 09:37:27

  TRACK 03 AUDIO
    TITLE "THE TEST THAT STUMPED THEM ALL (Live 2004)"
    PERFORMER "DREAM THEATER : Live at Budokan"
    INDEX 01 12:01:63

  TRACK 04 AUDIO
    TITLE "POWER OF THE BLUES"
    PERFORMER "GARY MOORE : Power of the Blues"
    INDEX 01 19:14:50

  TRACK 05 AUDIO
    TITLE "THE SUN WILL SHINE AGAIN"
    PERFORMER "JON LORD : Beyond the Notes (feat. Frida)"
    INDEX 01 24:06:67

  TRACK 06 AUDIO
    TITLE "I'LL KILL YOU"
    PERFORMER "ANOREXIA NERVOSA : Redemption Process"
    INDEX 01 30:25:29

  TRACK 07 AUDIO
    TITLE "NO COMPROMISE"
    PERFORMER "HAUNTED : Revolver"
    INDEX 01 34:39:53

  TRACK 08 AUDIO
    TITLE "Classic rock: 10,000 LOVERS (IN ONE)"
    PERFORMER "TNT : Tell No Tales"
    INDEX 01 52:44:02


SEO [PR] おまとめローン 冷え性対策 坂本龍馬 動画掲示板 レンタルサーバー SEO