[ オンエアリストに戻る ]
TITLE "Heavy Metal Syndicate #711"
FILE "2004-09-26.mp3" WAVE
  TRACK 01 AUDIO
    TITLE "AIN'T YOUR FAIRYTALE"
    PERFORMER "SONATA ARCTICA : Reckoning Night"
    INDEX 01 00:00:00

  TRACK 02 AUDIO
    TITLE "ESCAPE FROM TOMORROW"
    PERFORMER "FIREWIND : Forged by Fire"
    INDEX 01 14:48:13

  TRACK 03 AUDIO
    TITLE "THE LAND OF ETERNITY"
    PERFORMER "FIREWIND : Forged by Fire"
    INDEX 01 18:37:57

  TRACK 04 AUDIO
    TITLE "PULL ME UNDER (Live 2004)"
    PERFORMER "DREAM THEATER : Live at Budokan"
    INDEX 01 27:41:47

  TRACK 05 AUDIO
    TITLE "RIOT RACE"
    PERFORMER "TWILIGHTNING : Plague-House Puppet Show"
    INDEX 01 38:00:04

  TRACK 06 AUDIO
    TITLE "Classic rock: USED TO BAD NEWS"
    PERFORMER "BOSTON : Don't Look Back"
    INDEX 01 53:10:44


SEO [PR] おまとめローン 冷え性対策 坂本龍馬 動画掲示板 レンタルサーバー SEO