[ オンエアリストに戻る ]
TITLE "Heavy Metal Syndicate #710"
FILE "2004-09-19.mp3" WAVE
  TRACK 01 AUDIO
    TITLE "TYRANNY"
    PERFORMER "FIREWIND : Forged by Fire"
    INDEX 01 00:00:00

  TRACK 02 AUDIO
    TITLE "TO LIVE BY THE SWORD"
    PERFORMER "SAXON : Lionheart"
    INDEX 01 09:51:12

  TRACK 03 AUDIO
    TITLE "BACK IN THE DAY"
    PERFORMER "MEGADETH : The System Has Failed"
    INDEX 01 14:36:03

  TRACK 04 AUDIO
    TITLE "TAKE IT AWAY"
    PERFORMER "USED : In Love and Death"
    INDEX 01 19:57:21

  TRACK 05 AUDIO
    TITLE "WITHOUT A VIEW"
    PERFORMER "TOMMY STINSON : Village Gorilla Head"
    INDEX 01 24:26:68

  TRACK 06 AUDIO
    TITLE "KILLING FROST"
    PERFORMER "BRIDE ADORNED : Blessed Stillness?"
    INDEX 01 29:02:03

  TRACK 07 AUDIO
    TITLE "SPEED☆STAR"
    PERFORMER "GOLDBRICK : Goldbrick II"
    INDEX 01 35:30:16

  TRACK 08 AUDIO
    TITLE "ONE TEAM ONE SPIRIT"
    PERFORMER "GOTTHARD : One Team One Spirit - The Very Best"
    INDEX 01 51:01:63


SEO [PR] おまとめローン 冷え性対策 坂本龍馬 動画掲示板 レンタルサーバー SEO