[ オンエアリストに戻る ]
TITLE "Heavy Metal Syndicate #709"
FILE "2004-09-12.mp3" WAVE
  TRACK 01 AUDIO
    TITLE "BLACKMAIL THE UNIVERSE"
    PERFORMER "MEGADETH : The System Has Failed"
    INDEX 01 00:00:00

  TRACK 02 AUDIO
    TITLE "NEVER FORGOTTEN HEROES"
    PERFORMER "RHAPSODY : Symphony of Enchanted Lands II -The Dark Secret-"
    INDEX 01 10:56:40

  TRACK 03 AUDIO
    TITLE "WITCHFINDER GENERAL"
    PERFORMER "SAXON : Lionheart"
    INDEX 01 18:44:21

  TRACK 04 AUDIO
    TITLE "SHE IS BEAUTIFUL"
    PERFORMER "CHILDREN OF BODOM : Trashed, Lost & Strungout (EP)"
    INDEX 01 24:23:59

  TRACK 05 AUDIO
    TITLE "MOTHER OF STONE"
    PERFORMER "CHRIS ROBINSON & THE NEW EARTH MUD : This Magnificent Distance"
    INDEX 01 29:12:67

  TRACK 06 AUDIO
    TITLE "RABIES"
    PERFORMER "CATHEDRAL : The Serpent's Gold"
    INDEX 01 35:14:00

  TRACK 07 AUDIO
    TITLE "Classic rock: HEY JOE"
    PERFORMER "DEEP PURPLE : Shades of Deep Purple (Digitally remastered)"
    INDEX 01 49:07:10


SEO [PR] おまとめローン 冷え性対策 坂本龍馬 動画掲示板 レンタルサーバー SEO