[ オンエアリストに戻る ]
TITLE "Heavy Metal Syndicate #708"
FILE "2004-09-05.mp3" WAVE
  TRACK 01 AUDIO
    TITLE "INSIDE OUT"
    PERFORMER "GOTTHARD : One Team One Spirit - The Very Best"
    INDEX 01 00:00:00

  TRACK 02 AUDIO
    TITLE "UNHOLY WARCRY"
    PERFORMER "RHAPSODY : Symphony of Enchanted Lands II -The Dark Secret-"
    INDEX 01 08:41:63

  TRACK 03 AUDIO
    TITLE "KNUCKLEDUSTER"
    PERFORMER "CHILDREN OF BODOM : Trashed, Lost & Strungout (EP)"
    INDEX 01 14:30:70

  TRACK 04 AUDIO
    TITLE "INTO THE NOW"
    PERFORMER "TESLA : Into the Now"
    INDEX 01 19:52:21

  TRACK 05 AUDIO
    TITLE "DON'T ASK"
    PERFORMER "RICHIE KOTZEN : Acoustic Cuts (released 2003)"
    INDEX 01 24:59:50

  TRACK 06 AUDIO
    TITLE "ENLIGHTENED BY THE COLD"
    PERFORMER "SHADOWS FALL : The War Within"
    INDEX 01 29:27:33

  TRACK 07 AUDIO
    TITLE "THE SHINING"
    PERFORMER "ANOREXIA NERVOSA : Redemption Process"
    INDEX 01 34:32:42

  TRACK 08 AUDIO
    TITLE "Classic rock: LACK OF COMMUNICATION"
    PERFORMER "RATT : Out of the Cellar"
    INDEX 01 52:24:05


SEO [PR] おまとめローン 冷え性対策 坂本龍馬 動画掲示板 レンタルサーバー SEO