[ オンエアリストに戻る ]
TITLE "Heavy Metal Syndicate #707"
FILE "2004-08-29.mp3" WAVE
  TRACK 01 AUDIO
    TITLE "FEVER PITCH"
    PERFORMER "TWILIGHTNING : Plague-House Puppet Show"
    INDEX 01 00:00:00

  TRACK 02 AUDIO
    TITLE "BATTERING RAM"
    PERFORMER "IRON SAVIOR : Battering Ram"
    INDEX 01 09:28:70

  TRACK 03 AUDIO
    TITLE "THE LAST ANGELS' CALL"
    PERFORMER "RHAPSODY : Symphony of Enchanted Lands II -The Dark Secret-"
    INDEX 01 15:50:26

  TRACK 04 AUDIO
    TITLE "#1 SUMMER JAM"
    PERFORMER "BUTCH WALKER : Letters"
    INDEX 01 23:13:60

  TRACK 05 AUDIO
    TITLE "WHIPLASH"
    PERFORMER "MOTORHEAD : Metallic Attack - The Ultimate Tribute (Compilation)"
    INDEX 01 27:22:71

  TRACK 06 AUDIO
    TITLE "A LITTLE MOMENT OF DESPERATION"
    PERFORMER "LUNATICA : Fables & Dreams"
    INDEX 01 33:34:60

  TRACK 07 AUDIO
    TITLE "Classic rock: BRIGHTON ROCK"
    PERFORMER "QUEEN : Sheer Heart Attack (Digitally remastered)"
    INDEX 01 50:21:11


SEO [PR] おまとめローン 冷え性対策 坂本龍馬 動画掲示板 レンタルサーバー SEO