[ オンエアリストに戻る ]
TITLE "Heavy Metal Syndicate #706"
FILE "2004-08-22.mp3" WAVE
  TRACK 01 AUDIO
    TITLE "VICTIM OF DECEIT"
    PERFORMER "TWILIGHTNING : Plague-House Puppet Show"
    INDEX 01 00:00:00

  TRACK 02 AUDIO
    TITLE "HERO"
    PERFORMER "EUROPE : Start from the Dark"
    INDEX 01 12:14:30

  TRACK 03 AUDIO
    TITLE "BED OF NAILS"
    PERFORMER "CHILDREN OF BODOM : Trashed, Lost & Strungout (EP)"
    INDEX 01 17:45:40

  TRACK 04 AUDIO
    TITLE "WHEN A BLIND MAN CRIES (Live 2003)"
    PERFORMER "JON LORD with the HOOCHIE COOCHIE MEN : Live at the Basement"
    INDEX 01 26:02:10

  TRACK 05 AUDIO
    TITLE "WHEN A BLIND MAN CRIES"
    PERFORMER "HEAVEN & EARTH : A Taste of Heaven (feat. Richie Sambora)"
    INDEX 01 31:37:54

  TRACK 06 AUDIO
    TITLE "THE LIGHT THAT BLINDS"
    PERFORMER "SHADOWS FALL : The War Within"
    INDEX 01 37:50:10

  TRACK 07 AUDIO
    TITLE "WE ALL RUN"
    PERFORMER "MAGNUM : Brand New Morning"
    INDEX 01 51:23:72


SEO [PR] おまとめローン 冷え性対策 坂本龍馬 動画掲示板 レンタルサーバー SEO