[ オンエアリストに戻る ]
TITLE "Heavy Metal Syndicate #704"
FILE "2004-08-08.mp3" WAVE
  TRACK 01 AUDIO
    TITLE "MISPLACED"
    PERFORMER "SONATA ARCTICA : Reckoning Night"
    INDEX 01 00:00:00

  TRACK 02 AUDIO
    TITLE "GOT TO HAVE FAITH"
    PERFORMER "EUROPE : Start from the Dark"
    INDEX 01 14:48:00

  TRACK 03 AUDIO
    TITLE "GODDESS OF FORTUNE"
    PERFORMER "TWILIGHTNING : Plague-House Puppet Show"
    INDEX 01 19:39:10

  TRACK 04 AUDIO
    TITLE "40 DAYS"
    PERFORMER "CHRIS ROBINSON & THE NEW EARTH MUD : This Magnificent Distance"
    INDEX 01 27:05:16

  TRACK 05 AUDIO
    TITLE "NOT A MOMENT TOO SOON"
    PERFORMER "TOMMY STINSON : Village Gorilla Head"
    INDEX 01 33:18:44

  TRACK 06 AUDIO
    TITLE "ECHOES OF A NIGHTMARE"
    PERFORMER "MOONLIGHT AGONY : Echoes of a Nightmare"
    INDEX 01 39:07:30

  TRACK 07 AUDIO
    TITLE "MR. CROWLEY"
    PERFORMER "LIVING LOUD : Living Loud"
    INDEX 01 51:54:32


SEO [PR] おまとめローン 冷え性対策 坂本龍馬 動画掲示板 レンタルサーバー SEO