[ オンエアリストに戻る ]
TITLE "Heavy Metal Syndicate #703"
FILE "2004-08-01.mp3" WAVE
  TRACK 01 AUDIO
    TITLE "DON'T SAY A WORD"
    PERFORMER "SONATA ARCTICA : Don't Say a Word (single)"
    INDEX 01 00:00:00

  TRACK 02 AUDIO
    TITLE "PLAGUE-HOUSE PUPPET SHOW"
    PERFORMER "TWILIGHTNING : Plague-House Puppet Show"
    INDEX 01 10:52:50

  TRACK 03 AUDIO
    TITLE "Reissue: THE CREED (Megadeth Demo)"
    PERFORMER "MD.45 : The Craving (2004 reissue)"
    INDEX 01 19:43:50

  TRACK 04 AUDIO
    TITLE "HOLLOW HEAD"
    PERFORMER "BLAZE : Blood & Belief"
    INDEX 01 26:46:30

  TRACK 05 AUDIO
    TITLE "BATTLE METAL"
    PERFORMER "TURISAS : Battle Metal"
    INDEX 01 34:15:50

  TRACK 06 AUDIO
    TITLE "FIRESTORMS"
    PERFORMER "DEMONOID : Riders of the Apocalypse"
    INDEX 01 39:04:10

  TRACK 07 AUDIO
    TITLE "Classic rock: TAURIAN MATADOR"
    PERFORMER "BILLY COBHAM : Spectrum (Digitally remastered) (feat. Tommy Bolin)"
    INDEX 01 53:08:50


SEO [PR] おまとめローン 冷え性対策 坂本龍馬 動画掲示板 レンタルサーバー SEO