[ オンエアリストに戻る ]
TITLE "Heavy Metal Syndicate #702"
FILE "2004-07-25.mp3" WAVE
  TRACK 01 AUDIO
    TITLE "THE TEMPLE OF HATE"
    PERFORMER "ANGRA : Temple of Shadows"
    INDEX 01 00:00:00

  TRACK 02 AUDIO
    TITLE "NIGHTMARE"
    PERFORMER "LIONSHEART : Abyss"
    INDEX 01 12:37:70

  TRACK 03 AUDIO
    TITLE "FROZEN TO LOSE IT ALL"
    PERFORMER "NEGATIVE : Sweet & Deceitful"
    INDEX 01 18:33:10

  TRACK 04 AUDIO
    TITLE "IN AN OUTRAGE"
    PERFORMER "CHASTAIN : In an Outrage"
    INDEX 01 24:20:00

  TRACK 05 AUDIO
    TITLE "BLOOD (EMPTY PROMISES) / 第700回記念 福袋プレゼント"
    PERFORMER "PAPA ROACH : Getting Away with Murder"
    INDEX 01 32:04:20

  TRACK 06 AUDIO
    TITLE "Classic rock: HOT LOVE"
    PERFORMER "ALDO NOVA : Aldo Nova"
    INDEX 01 52:18:30


SEO [PR] おまとめローン 冷え性対策 坂本龍馬 動画掲示板 レンタルサーバー SEO