[ オンエアリストに戻る ]
TITLE "Heavy Metal Syndicate #701"
FILE "2004-07-18.mp3" WAVE
  TRACK 01 AUDIO
    TITLE "UP FOR BREAKFAST"
    PERFORMER "VAN HALEN : The Best of Both Worlds"
    INDEX 01 00:00:00

  TRACK 02 AUDIO
    TITLE "ANGELS AND DEMONS"
    PERFORMER "ANGRA : Temple of Shadows"
    INDEX 01 12:34:00

  TRACK 03 AUDIO
    TITLE "TEN SECONDS"
    PERFORMER "BLAZE : Blood & Belief"
    INDEX 01 18:06:50

  TRACK 04 AUDIO
    TITLE "BULLET FROM A GUN"
    PERFORMER "CHASTAIN : In an Outrage"
    INDEX 01 25:40:00

  TRACK 05 AUDIO
    TITLE "THE DAY OF JUDGEMENT"
    PERFORMER "ARTENSION : Future World"
    INDEX 01 30:47:00

  TRACK 06 AUDIO
    TITLE "PHOENIX"
    PERFORMER "BOOK OF REFLECTIONS : Book of Reflections"
    INDEX 01 37:43:10

  TRACK 07 AUDIO
    TITLE "DEATHTRIP"
    PERFORMER "HATESPHERE : Ballet of the Brute"
    INDEX 01 42:18:00

  TRACK 08 AUDIO
    TITLE "SCREAMING"
    PERFORMER "LIONSHEART : Abyss"
    INDEX 01 51:55:60


SEO [PR] おまとめローン 冷え性対策 坂本龍馬 動画掲示板 レンタルサーバー SEO