[ オンエアリストに戻る ]
TITLE "Heavy Metal Syndicate #700"
FILE "2004-07-11.mp3" WAVE
  TRACK 01 AUDIO
    TITLE "Reissue: SYMPHONY OF DESTRUCTION (Demo)"
    PERFORMER "MEGADETH : Countdown to Extinction (2004 reissue)"
    INDEX 01 00:00:00

  TRACK 02 AUDIO
    TITLE "FIGHT"
    PERFORMER "MOTORHEAD : Inferno"
    INDEX 01 13:24:40

  TRACK 03 AUDIO
    TITLE "LOVE LIES BURIED"
    PERFORMER "GRAND ILLUSION : Ordinary Just Won't Do"
    INDEX 01 18:01:70

  TRACK 04 AUDIO
    TITLE "GET UP"
    PERFORMER "RICHIE KOTZEN : Get Up"
    INDEX 01 24:16:40

  TRACK 05 AUDIO
    TITLE "HEART FULL OF SOUL"
    PERFORMER "RUSH : Feedback (EP)"
    INDEX 01 28:06:50

  TRACK 06 AUDIO
    TITLE "THE GHOST"
    PERFORMER "MOONLIGHT AGONY : Echoes of a Nightmare"
    INDEX 01 33:00:70

  TRACK 07 AUDIO
    TITLE "TROOPS OF DOOM"
    PERFORMER "NAPALM DEATH : Leaders Not Followers - Part 2"
    INDEX 01 39:11:60

  TRACK 08 AUDIO
    TITLE "Classic rock: BLITZKRIEG"
    PERFORMER "BLITZKRIEG : A Time of Changes - Phase 1"
    INDEX 01 52:48:40


SEO [PR] おまとめローン 冷え性対策 坂本龍馬 動画掲示板 レンタルサーバー SEO